Welcome back, guest

Username:

Password:



Registration
Main menu
:: Torrent details
HDTV 1080Golden torrent Download Add to bookmarksLinkin Park - Berlin, Germany, O2 World Arena (19.11.2014) [4K UHD]
Info hash3fa86fd2570f08323a1b8974021f3dbc9a379082
Images     
DescriptionNovember 19, 2014
Berlin, BerlinGermany
O2 WorldArena


Setlist:
01. Mashup Intro #2
02. Guilty All The Same
03. Given Up
04. Points Of Authority
05. One Step Closer
06. Blackout
07. Papercut
08. Rebellion
09. Runaway
10. Wastelands
11. Castle Of Glass
12. LOATR/SOTD/Iridescent
13. Robot Boy
14. Joe Solo Medley
15. Burn It Down
16. Waiting For The End
17. Final Masquerade
18. Mike Solo Medley
19. Numb
20. In The End
21. Faint
----------------------------------------------------
22. Lost In The Echo
23. New Divide
24. Crawling
25. Until It's Gone
26. What I've Done
27. Bleed It Out

*first live concert in the world to be broadcast at Astra 19.2 degrees East in Ultra HD (3840 x 2160 pixel) in HEVC standard, at 50 fps and a colour depth of 10 bit.
Technical Information
Mediainfo log
General
Container:  MPEG-TS
Runtime: 1h 44mn
Size: 23.0 GiB
Video
Codec: 
Resolution: 3840x2160 
Aspect ratio:  16:9
Frame rate: 50.000 fps
Bit rate: 29.9 Mbps
Profile: Main@L5.1
Audio
#1:   2.0ch MP2 @ 192 Kbps
QualityPro - Shot
SeederLast time was here 9:12 Ago
Size23.01 GB (24,708,209,072 bytes)
Added2014-11-20 16:55:04
Views1791
Hits392
Snatched221 times
UploaderLexx
Downloading
[Open list]
1 Seeders, 0 Leechers = 1 peers
Snatched by:
[Open list]
Torrent infoShow info
Thanks by:

:: Comments list
Pages: Prev  1 2 
celobrazil at 2014-11-21 11:46:31

Thank you so much!


GeorgeIceman at 2014-11-21 14:41:58

i downloaded and its only sound


RYCHU at 2014-11-22 00:07:40

This version also has a BAD SOUND, terrible glitches during the first 6 minutes (exactly after 6:35 sound gets better).

SergSlim
Is this 10 bits or 8?


MediaInfo says it's 8 bits.

lpplus
Lexx can give us more info about this source?

ID                                       : 1035 (0x40B)
Complete name                            : G:\BOOTLEGS@NEW\Linkin.Park.Berlin.2014.2160p.HDTV.HEVC-jTV.ts
Format                                   : MPEG-TS
File size                                : 23.0 GiB
Duration                                 : 1h 44mn
Overall bit rate mode                    : Variable
Overall bit rate                         : 31.7 Mbps

Video
ID                                       : 210 (0xD2)
Menu ID                                  : 2 (0x2)
Format                                   : HEVC
Format/Info                              : High Efficiency Video Coding
Format profile                           : Main@L5.1
Codec ID                                 : 36
Duration                                 : 1h 44mn
Bit rate                                 : 29.9 Mbps
Width                                    : 3 840 pixels
Height                                   : 2 160 pixels
Display aspect ratio                     : 16:9
Frame rate                               : 50.000 fps
Color space                              : YUV
Chroma subsampling                       : 4:2:0
Bit depth                                : 8 bits
Bits/(Pixel*Frame)                       : 0.072
Stream size                              : 21.7 GiB (94%)

Audio
ID                                       : 220 (0xDC)
Menu ID                                  : 2 (0x2)
Format                                   : MPEG Audio
Format version                           : Version 1
Format profile                           : Layer 2
Codec ID                                 : 3
Duration                                 : 1h 44mn
Bit rate mode                            : Constant
Bit rate                                 : 192 Kbps
Channel(s)                               : 2 channels
Sampling rate                            : 48.0 KHz
Compression mode                         : Lossy
Delay relative to video                  : -1s 133ms
Stream size                              : 143 MiB (1%)


GeorgeIceman
i downloaded and its only sound


Because you're probably using VLC, try different software, like MPC or KMPlayer. This video requires high-end hardware, otherwise you got a nice slideshow or slow motion, like on my i7-4700HQ

Last edited by RYCHU at 2014-11-22 00:53:24



SergSlim at 2014-11-22 09:39:24

RYCHU

MediaInfo says it's 8 bits.


WTH? Was it even broadcasted in 10 bits or what?


patient420 at 2014-11-23 10:31:53

anyone got a link to a normal 1080i version or something ?


Overall 15 items in 2 page, showing 10 per page.

Pages: Prev  1 2 
 :: Add Comment
Who`s online 
Latest User: kaapsekind
Online: No users in the past 10 minutes.
Online:
Staff: 0
Users: 0
Guests: 80
Totall: 80

Users active in the past 24 hrs: 1
Visitors map
Flag Counter